Bookmark and Share
Friday, October 14, 2011 at 4:33 PM | 0 comments  
The Tree of Life 2011

From Terrence Malick, the acclaimed director of such classic films as Badlands, Days of Heaven and The Thin Red Line, The Tree of Life is the impressionistic story of a Midwestern family in the 1950's. The film follows the life journey of the eldest son, Jack, through the innocence of childhood to his disillusioned adult years as he tries to reconcile a complicated relationship with his father (Brad Pitt). Jack (played as an adult by Sean Penn) finds himself a lost soul in the modern world, seeking answers to the origins and meaning of life while questioning the existence of faith. Through Malick's signature imagery, we see how both brute nature and spiritual grace shape not only our lives as individuals and families, but all life.

Directed by Terrence Malick
Produced by Dede Gardner
Sarah Green
Grant Hill
Brad Pitt
Bill Pohlad
Written by Terrence Malick
Starring Brad Pitt
Sean Penn
Jessica Chastain
Music by Alexandre Desplat
Cinematography Emmanuel Lubezki
Editing by Hank Corwin
Jay Rabinowitz
Daniel Rezende
Billy Weber
Mark Yoshikawa
Studio Plan B Entertainment
River Road Entertainment
Distributed by Fox Searchlight Pictures (US)
EuropaCorp (France)
Release date(s) May 16, 2011 (Cannes)
May 27, 2011 (United States)
Running time 139 minutes
Country United States
Language English
Budget $32 million
Box office $54,246,069

 Download: Blu-Ray rip (700 MB)

Format : AVI
Format/Info : Audio Video Interleave
File size : 700 MiB
Duration : 2h 18mn
Overall bit rate : 704 Kbps

Video
ID : 0
Format : MPEG-4 Visual
Format profile : Advanced Simple@L5
Format settings, BVOP : 2
Format settings, QPel : No
Format settings, GMC : No warppoints
Format settings, Matrix : Default (H.263)
Codec ID : XVID
Codec ID/Hint : XviD
Duration : 2h 18mn
Bit rate : 580 Kbps
Width : 720 pixels
Height : 384 pixels
Display aspect ratio : 1.875
Frame rate : 23.976 fps
Color space : YUV
Chroma subsampling : 4:2:0
Bit depth : 8 bits
Scan type : Progressive
Compression mode : Lossy
Bits/(Pixel*Frame) : 0.087
Stream size : 576 MiB (82%)
Writing library : XviD 1.2.1 (UTC 2008-12-04)

Audio
ID : 1
Format : MPEG Audio
Format version : Version 1
Format profile : Layer 3
Codec ID : 55
Codec ID/Hint : MP3
Duration : 2h 18mn
Bit rate mode : Constant
Bit rate : 112 Kbps
Channel(s) : 2 channels
Sampling rate : 48.0 KHz
Compression mode : Lossy
Stream size : 111 MiB (16%)
Alignment : Split accross interleaves
Interleave, duration : 24 ms (0.58 video frame)


 http://www.wupload.com/file/1697199031/The.Tree.of.Life.BRRip.avi
Download Links
Posted by MD Labels: , ,